Re: Прошивка 43USK1810T2

razorx16
Повідомлень: 10
З нами з: 09 січня 2019, 22:34
Дякував (ла): 2 рази
Подякували: 3 рази

Re: Re: Прошивка 43USK1810T2

Повідомлення razorx16 » 11 січня 2019, 21:04

usaf22 писав:
11 січня 2019, 19:53
razorx16 писав:
11 січня 2019, 19:00
Romsat писав:
10 січня 2019, 17:24
Оболочка андроида имеет разрешение 1920х1080, таким образом ТВ поддерживает разрешение только FHD, это распространяется на меню Smart TV и приложения, именно поэтому программы определяют разрешение ТВ как FHD.
Поэтому AIDA64 вам и выдаёт информацию 1920х1080.
так что на нее лучше не ориентироваться, поскольку они могут Вас ввести в заблуждение относительно любой техники, не только телевизоров Romsat. В интернете достаточно много подобных случаев.

В телевизоре есть поддержка видео кодека H264 (FULLHD), если б был установлен кодек H265(UHD) вы б смогли просматривать видео через встроенный медиаплеер, поэтому рекомендую использовать сторонние приложения для воспроизведения 4К видео. А что касается Youtube, выше я дал приложение, попробуйте его и отпишитесь, получилось воспроизвести 4К видео с Ютуб или нет.
По поводу установки програмного декодирования (МХ и тд) - Открывает с фпс -2-4 кадра , вместо 24
Могу лишь подтвердить - смотреть 4к через "смарт самого телевизора" просто нереально. И не важно, какой плеер - предустановленный, MX player или VLC - программный декодер никак не может справится с 4К, который "поступает" ему от USB флешки\винчестера. Единственный выход - подключать что либо через HDMI, будь то тв ПРИСТАВКА с поддержкой 4к или плейстейшн. Но в любом случае - через HDMI. Толком тут "родной смарт" для 4К не создан вообще :)))
Та как-то не понятно и обидно. На телефоне (Простой мейзу м3 нот) тот же ВЛС плеер этот 4к файл открывает без проблем, а телик нет( Вот и вопрос это проблема в прошывке, или сама связка Процессор/ГПУ не может в 4к нормальное, только специально пережатое под него.
За це повідомлення автора razorx16 подякував:
usaf22
Рейтинг: 20%
 

alex2020
Повідомлень: 193
З нами з: 18 грудня 2018, 22:58
Звідки: Одесса
Дякував (ла): 1 раз
Подякували: 7 разів

Re: Re: Прошивка 43USK1810T2

Повідомлення alex2020 » 11 січня 2019, 22:20

Хорошая статья, о поводу сколько ядер должно быть для Смарт ТВ.
http://smart-android.com.ua/blog/skolko ... oid-tv-box

alex2020
Повідомлень: 193
З нами з: 18 грудня 2018, 22:58
Звідки: Одесса
Дякував (ла): 1 раз
Подякували: 7 разів

Re: Re: Прошивка 43USK1810T2

Повідомлення alex2020 » 11 січня 2019, 23:15

Найдите 10 различий с телевизором Ромсат. Похоже, что и процессор у нас тоже 1.3 ghz, а не 1,5 как на сайте написано
https://www.displayspecifications.com/r ... on/8ff3e54

alex2020
Повідомлень: 193
З нами з: 18 грудня 2018, 22:58
Звідки: Одесса
Дякував (ла): 1 раз
Подякували: 7 разів

Re: Re: Прошивка 43USK1810T2

Повідомлення alex2020 » 12 січня 2019, 01:13

Похоже, что в телевизоре используется вот такой тюнер https://www.nxp.com/docs/en/data-sheet/TDA18275_SDS.pdf

Аватар користувача
Romsat
Site Admin
Повідомлень: 480
З нами з: 11 квітня 2018, 14:17
Звідки: Київ
Дякував (ла): 20 разів
Подякували: 57 разів
Контактна інформація:

Re: Re: Прошивка 43USK1810T2

Повідомлення Romsat » 12 січня 2019, 19:46

paladon писав:
11 січня 2019, 18:06
Romsat писав:
11 січня 2019, 17:47
razorx16 писав:
11 січня 2019, 17:09


https://fex.net/990533394927

Вот вариант того что хотел открыть, а немполучаеться( хотя по кодеку AVC, битрейт не высокий, кадров 23,97.
Информация о файле:
Video: MPEG4 Video (H264) 3840x2160 23fps 3927kbps [V: h264 high L5.1, yuv420p, 3840x2160, 3927 kb/s]
Audio: AAC 48000Hz 6ch 341kbps [A: SoundHandler (aac lc, 48000 Hz, 5.1, 341 kb/s)]

Телевизор не поддерживает кодек H264, только поддерживает H265

Но можно воспользоваться сторонним приложением, например MX плеер или VLC и установить настройки использовать программный кодек.


Странно?50USK1810T2 поддерживает
333.jpg
Странно. В понедельник разберусь, может что-то добавили и не предупредили :) )))

Аватар користувача
Romsat
Site Admin
Повідомлень: 480
З нами з: 11 квітня 2018, 14:17
Звідки: Київ
Дякував (ла): 20 разів
Подякували: 57 разів
Контактна інформація:

Re: Re: Прошивка 43USK1810T2

Повідомлення Romsat » 12 січня 2019, 19:50

usaf22 писав:
11 січня 2019, 19:53
razorx16 писав:
11 січня 2019, 19:00
Romsat писав:
10 січня 2019, 17:24
Оболочка андроида имеет разрешение 1920х1080, таким образом ТВ поддерживает разрешение только FHD, это распространяется на меню Smart TV и приложения, именно поэтому программы определяют разрешение ТВ как FHD.
Поэтому AIDA64 вам и выдаёт информацию 1920х1080.
так что на нее лучше не ориентироваться, поскольку они могут Вас ввести в заблуждение относительно любой техники, не только телевизоров Romsat. В интернете достаточно много подобных случаев.

В телевизоре есть поддержка видео кодека H264 (FULLHD), если б был установлен кодек H265(UHD) вы б смогли просматривать видео через встроенный медиаплеер, поэтому рекомендую использовать сторонние приложения для воспроизведения 4К видео. А что касается Youtube, выше я дал приложение, попробуйте его и отпишитесь, получилось воспроизвести 4К видео с Ютуб или нет.
По поводу установки програмного декодирования (МХ и тд) - Открывает с фпс -2-4 кадра , вместо 24
Могу лишь подтвердить - смотреть 4к через "смарт самого телевизора" просто нереально. И не важно, какой плеер - предустановленный, MX player или VLC - программный декодер никак не может справится с 4К, который "поступает" ему от USB флешки\винчестера. Единственный выход - подключать что либо через HDMI, будь то тв ПРИСТАВКА с поддержкой 4к или плейстейшн. Но в любом случае - через HDMI. Толком тут "родной смарт" для 4К не создан вообще :)))
В понедельник сделаю видео, запуск 4К видео с диска.

alex2020
Повідомлень: 193
З нами з: 18 грудня 2018, 22:58
Звідки: Одесса
Дякував (ла): 1 раз
Подякували: 7 разів

Re: Re: Прошивка 43USK1810T2

Повідомлення alex2020 » 12 січня 2019, 22:55

Печалька, попробовал два 4к видио файла в формате h264. Родной медиа-плеер говорит, что видио не поддерживается, MX player запускает только аудиодорожку, вместо видио - черный экран. Похоже с аппаратной поддержкой все плохо, надо искать софтверные кодеки, а с учетом очень слабого процессора, вряд ли что то получится.
Ниже описание видио, что я пытался запустить.
General
Complete name : D:\Install\Test\TV\Samsung Nature 4K Demo.mp4
Format : MPEG-4
Format profile : Base Media
Codec ID : isom (isom/iso2/avc1/mp41)
File size : 642 MiB
Duration : 2 min 37 s
Overall bit rate : 34.2 Mb/s
Writing application : Lavf55.48.101

Video
ID : 1
Format : AVC
Format/Info : Advanced Video Codec
Format profile : High@L5.1
Format settings : CABAC / 5 Ref Frames
Format settings, CABAC : Yes
Format settings, ReFrames : 5 frames
Codec ID : avc1
Codec ID/Info : Advanced Video Coding
Duration : 2 min 37 s
Bit rate : 34.0 Mb/s
Width : 3 840 pixels
Height : 2 160 pixels
Display aspect ratio : 16:9
Frame rate mode : Constant
Frame rate : 29.970 (29970/1000) FPS
Color space : YUV
Chroma subsampling : 4:2:0
Bit depth : 8 bits
Scan type : Progressive
Bits/(Pixel*Frame) : 0.137
Stream size : 639 MiB (100%)
Writing library : x264 core 142 r2431 ac76440
Encoding settings : cabac=1 / ref=5 / deblock=1:0:0 / analyse=0x3:0x113 / me=umh / subme=8 / psy=1 / psy_rd=1.00:0.00 / mixed_ref=1 / me_range=16 / chroma_me=1 / trellis=1 / 8x8dct=1 / cqm=0 / deadzone=21,11 / fast_pskip=1 / chroma_qp_offset=-2 / threads=18 / lookahead_threads=3 / sliced_threads=0 / nr=0 / decimate=1 / interlaced=0 / bluray_compat=0 / constrained_intra=0 / bframes=3 / b_pyramid=2 / b_adapt=2 / b_bias=0 / direct=3 / weightb=1 / open_gop=0 / weightp=2 / keyint=250 / keyint_min=25 / scenecut=40 / intra_refresh=0 / rc_lookahead=50 / rc=crf / mbtree=1 / crf=20.0 / qcomp=0.60 / qpmin=0 / qpmax=69 / qpstep=4 / ip_ratio=1.40 / aq=1:1.00
Codec configuration box : avcC

Audio
ID : 2
Format : AAC LC
Format/Info : Advanced Audio Codec Low Complexity
Codec ID : mp4a-40-2
Duration : 2 min 37 s
Bit rate mode : Constant
Bit rate : 157 kb/s
Channel(s) : 2 channels
Channel layout : L R
Sampling rate : 48.0 kHz
Frame rate : 46.875 FPS (1024 SPF)
Compression mode : Lossy
Stream size : 2.96 MiB (0%)
Language : English
Default : Yes
Alternate group : 1


General
Unique ID : 202729405960809938752599894950811395089 (0x9884436B37F62F669F0D4D0DFAA9E411)
Complete name : D:\Install\Test\TV\Philips_Beach_Life_4K_UHD-HDCLUB.mkv
Format : Matroska
Format version : Version 4 / Version 2
File size : 684 MiB
Duration : 2 min 11 s
Overall bit rate : 43.7 Mb/s
Encoded date : UTC 2016-04-11 15:17:27
Writing application : mkvmerge v9.0.1 ('Obstacles') 64bit
Writing library : libebml v1.3.3 + libmatroska v1.4.4

Video
ID : 1
Format : AVC
Format/Info : Advanced Video Codec
Format profile : High@L5.1
Format settings : CABAC / 4 Ref Frames
Format settings, CABAC : Yes
Format settings, ReFrames : 4 frames
Codec ID : V_MPEG4/ISO/AVC
Duration : 2 min 11 s
Bit rate : 42.2 Mb/s
Width : 3 840 pixels
Height : 2 160 pixels
Display aspect ratio : 16:9
Frame rate mode : Constant
Frame rate : 24.000 FPS
Color space : YUV
Chroma subsampling : 4:2:0
Bit depth : 8 bits
Scan type : Progressive
Bits/(Pixel*Frame) : 0.212
Stream size : 661 MiB (97%)
Writing library : x264 core 142 r2479 dd79a61
Encoding settings : cabac=1 / ref=4 / deblock=1:-1:-1 / analyse=0x3:0x113 / me=umh / subme=10 / psy=1 / psy_rd=1.00:0.15 / mixed_ref=1 / me_range=24 / chroma_me=1 / trellis=2 / 8x8dct=1 / cqm=0 / deadzone=21,11 / fast_pskip=1 / chroma_qp_offset=-3 / threads=12 / lookahead_threads=1 / sliced_threads=0 / nr=0 / decimate=1 / interlaced=0 / bluray_compat=0 / constrained_intra=0 / bframes=3 / b_pyramid=2 / b_adapt=2 / b_bias=0 / direct=1 / weightb=1 / open_gop=0 / weightp=2 / keyint=240 / keyint_min=24 / scenecut=40 / intra_refresh=0 / rc_lookahead=60 / rc=crf / mbtree=1 / crf=15.0 / qcomp=0.60 / qpmin=0 / qpmax=69 / qpstep=4 / vbv_maxrate=50000 / vbv_bufsize=60000 / crf_max=0.0 / nal_hrd=none / filler=0 / ip_ratio=1.40 / aq=1:1.00
Language : English
Default : Yes
Forced : No
Color range : Limited
Color primaries : BT.709
Transfer characteristics : BT.709
Matrix coefficients : BT.709

Audio
ID : 2
Format : AC-3
Format/Info : Audio Coding 3
Commercial name : Dolby Digital
Codec ID : A_AC3
Duration : 2 min 11 s
Bit rate mode : Constant
Bit rate : 640 kb/s
Channel(s) : 6 channels
Channel layout : L R C LFE Ls Rs
Sampling rate : 48.0 kHz
Frame rate : 31.250 FPS (1536 SPF)
Bit depth : 16 bits
Compression mode : Lossy
Delay relative to video : -5 ms
Stream size : 10.0 MiB (1%)
Language : English
Service kind : Complete Main
Default : Yes
Forced : No
За це повідомлення автора alex2020 подякував:
usaf22
Рейтинг: 20%
 

usaf22
Повідомлень: 23
З нами з: 08 липня 2018, 14:55
Дякував (ла): 11 разів
Подякували: 3 рази

Re: Re: Прошивка 43USK1810T2

Повідомлення usaf22 » 12 січня 2019, 23:16

alex2020 писав:
12 січня 2019, 22:55
Печалька, попробовал два 4к видио файла в формате h264. Родной медиа-плеер говорит, что видио не поддерживается, MX player запускает только аудиодорожку, вместо видио - черный экран. Похоже с аппаратной поддержкой все плохо, надо искать софтверные кодеки, а с учетом очень слабого процессора, вряд ли что то получится.
Ниже описание видио, что я пытался запустить.
General
Complete name : D:\Install\Test\TV\Samsung Nature 4K Demo.mp4
Format : MPEG-4
Format profile : Base Media
Codec ID : isom (isom/iso2/avc1/mp41)
File size : 642 MiB
Duration : 2 min 37 s
Overall bit rate : 34.2 Mb/s
Writing application : Lavf55.48.101

Video
ID : 1
Format : AVC
Format/Info : Advanced Video Codec
Format profile : High@L5.1
Format settings : CABAC / 5 Ref Frames
Format settings, CABAC : Yes
Format settings, ReFrames : 5 frames
Codec ID : avc1
Codec ID/Info : Advanced Video Coding
Duration : 2 min 37 s
Bit rate : 34.0 Mb/s
Width : 3 840 pixels
Height : 2 160 pixels
Display aspect ratio : 16:9
Frame rate mode : Constant
Frame rate : 29.970 (29970/1000) FPS
Color space : YUV
Chroma subsampling : 4:2:0
Bit depth : 8 bits
Scan type : Progressive
Bits/(Pixel*Frame) : 0.137
Stream size : 639 MiB (100%)
Writing library : x264 core 142 r2431 ac76440
Encoding settings : cabac=1 / ref=5 / deblock=1:0:0 / analyse=0x3:0x113 / me=umh / subme=8 / psy=1 / psy_rd=1.00:0.00 / mixed_ref=1 / me_range=16 / chroma_me=1 / trellis=1 / 8x8dct=1 / cqm=0 / deadzone=21,11 / fast_pskip=1 / chroma_qp_offset=-2 / threads=18 / lookahead_threads=3 / sliced_threads=0 / nr=0 / decimate=1 / interlaced=0 / bluray_compat=0 / constrained_intra=0 / bframes=3 / b_pyramid=2 / b_adapt=2 / b_bias=0 / direct=3 / weightb=1 / open_gop=0 / weightp=2 / keyint=250 / keyint_min=25 / scenecut=40 / intra_refresh=0 / rc_lookahead=50 / rc=crf / mbtree=1 / crf=20.0 / qcomp=0.60 / qpmin=0 / qpmax=69 / qpstep=4 / ip_ratio=1.40 / aq=1:1.00
Codec configuration box : avcC

Audio
ID : 2
Format : AAC LC
Format/Info : Advanced Audio Codec Low Complexity
Codec ID : mp4a-40-2
Duration : 2 min 37 s
Bit rate mode : Constant
Bit rate : 157 kb/s
Channel(s) : 2 channels
Channel layout : L R
Sampling rate : 48.0 kHz
Frame rate : 46.875 FPS (1024 SPF)
Compression mode : Lossy
Stream size : 2.96 MiB (0%)
Language : English
Default : Yes
Alternate group : 1


General
Unique ID : 202729405960809938752599894950811395089 (0x9884436B37F62F669F0D4D0DFAA9E411)
Complete name : D:\Install\Test\TV\Philips_Beach_Life_4K_UHD-HDCLUB.mkv
Format : Matroska
Format version : Version 4 / Version 2
File size : 684 MiB
Duration : 2 min 11 s
Overall bit rate : 43.7 Mb/s
Encoded date : UTC 2016-04-11 15:17:27
Writing application : mkvmerge v9.0.1 ('Obstacles') 64bit
Writing library : libebml v1.3.3 + libmatroska v1.4.4

Video
ID : 1
Format : AVC
Format/Info : Advanced Video Codec
Format profile : High@L5.1
Format settings : CABAC / 4 Ref Frames
Format settings, CABAC : Yes
Format settings, ReFrames : 4 frames
Codec ID : V_MPEG4/ISO/AVC
Duration : 2 min 11 s
Bit rate : 42.2 Mb/s
Width : 3 840 pixels
Height : 2 160 pixels
Display aspect ratio : 16:9
Frame rate mode : Constant
Frame rate : 24.000 FPS
Color space : YUV
Chroma subsampling : 4:2:0
Bit depth : 8 bits
Scan type : Progressive
Bits/(Pixel*Frame) : 0.212
Stream size : 661 MiB (97%)
Writing library : x264 core 142 r2479 dd79a61
Encoding settings : cabac=1 / ref=4 / deblock=1:-1:-1 / analyse=0x3:0x113 / me=umh / subme=10 / psy=1 / psy_rd=1.00:0.15 / mixed_ref=1 / me_range=24 / chroma_me=1 / trellis=2 / 8x8dct=1 / cqm=0 / deadzone=21,11 / fast_pskip=1 / chroma_qp_offset=-3 / threads=12 / lookahead_threads=1 / sliced_threads=0 / nr=0 / decimate=1 / interlaced=0 / bluray_compat=0 / constrained_intra=0 / bframes=3 / b_pyramid=2 / b_adapt=2 / b_bias=0 / direct=1 / weightb=1 / open_gop=0 / weightp=2 / keyint=240 / keyint_min=24 / scenecut=40 / intra_refresh=0 / rc_lookahead=60 / rc=crf / mbtree=1 / crf=15.0 / qcomp=0.60 / qpmin=0 / qpmax=69 / qpstep=4 / vbv_maxrate=50000 / vbv_bufsize=60000 / crf_max=0.0 / nal_hrd=none / filler=0 / ip_ratio=1.40 / aq=1:1.00
Language : English
Default : Yes
Forced : No
Color range : Limited
Color primaries : BT.709
Transfer characteristics : BT.709
Matrix coefficients : BT.709

Audio
ID : 2
Format : AC-3
Format/Info : Audio Coding 3
Commercial name : Dolby Digital
Codec ID : A_AC3
Duration : 2 min 11 s
Bit rate mode : Constant
Bit rate : 640 kb/s
Channel(s) : 6 channels
Channel layout : L R C LFE Ls Rs
Sampling rate : 48.0 kHz
Frame rate : 31.250 FPS (1536 SPF)
Bit depth : 16 bits
Compression mode : Lossy
Delay relative to video : -5 ms
Stream size : 10.0 MiB (1%)
Language : English
Service kind : Complete Main
Default : Yes
Forced : No
Спасибо и за ваш тест. Ждем теперь теста от пользователя Romsat, хочу убедиться окончательно, что на этом телике можно смотреть видео 4К лишь через устройство 4К, подключенное к телевизору исключительно через HDMI...

alex2020
Повідомлень: 193
З нами з: 18 грудня 2018, 22:58
Звідки: Одесса
Дякував (ла): 1 раз
Подякували: 7 разів

Re: Re: Прошивка 43USK1810T2

Повідомлення alex2020 » 13 січня 2019, 00:23

Нет вот это видио открывается как родным медиаплеером так и МХ player без проблем.
General
ID : 0 (0x0)
Complete name : G:\LG_Santorini_4K_UHD-HDCLUB.ts
Format : MPEG-TS
File size : 280 MiB
Duration : 1 min 15 s
Overall bit rate mode : Constant
Overall bit rate : 31.0 Mb/s

Video
ID : 257 (0x101)
Menu ID : 1 (0x1)
Format : HEVC
Format/Info : High Efficiency Video Coding
Format profile : Main@L5.1@Main
Codec ID : 36
Duration : 1 min 14 s
Width : 3 840 pixels
Height : 2 160 pixels
Display aspect ratio : 16:9
Frame rate : 29.970 (30000/1001) FPS
Color space : YUV
Chroma subsampling : 4:2:0
Bit depth : 8 bits
Writing library : ATEME Titan KFE 3.7.4 (4.7.4.0)

Audio
ID : 258 (0x102)
Menu ID : 1 (0x1)
Format : AAC LC
Format/Info : Advanced Audio Codec Low Complexity
Format version : Version 4
Muxing mode : ADTS
Codec ID : 15-2
Duration : 1 min 14 s
Bit rate mode : Variable
Channel(s) : 2 channels
Channel layout : L R
Sampling rate : 48.0 kHz
Frame rate : 46.875 FPS (1024 SPF)
Compression mode : Lossy

Получается что не поддерживается видео, которое упаковано H264/AVC
Поддерживается то видео, которое упаковано H265/HEVC

alex2020
Повідомлень: 193
З нами з: 18 грудня 2018, 22:58
Звідки: Одесса
Дякував (ла): 1 раз
Подякували: 7 разів

Re: Re: Прошивка 43USK1810T2

Повідомлення alex2020 » 13 січня 2019, 00:24

Так что 4k смотреть можно но не все. Может в будущую прошивку встроят h264/AVC кодек.

Відповісти

Повернутись до “Телевізор Romsat 43USK1810T2”